Tamil community - Pastime Group

அகர முதல எழுத்தெல்லாம் ஆதி பகவன் முதற்றே உலகு.




You are not connected. Please login or register

 
 

Singam 2 (2013) ~ Lotus DVDRip ~ x264 ~ 700MB ~ Tamil

Message (Page 1 of 1)

#1

Owner


 
Administrator
Administrator

Posted on Wed Jul 31, 2013 9:37 pm

 
[You must be registered and logged in to see this image.]

ingam II is a 2013 Indian Tamil action film directed by Hari, a sequel to the successful 2010 film Singam. Produced by S. Lakshman Kumar, it stars Suriya in the title role with Anushka Shetty, Hansika Motwani, Vivek and Santhanam in supporting roles.
Director : Hari
Music : DSP

Format : Matroska
Format version : Version 2
File size : 875 MiB
Duration : 2h 52mn


Video #1
ID : 1
Format : AVC
Format/Info : Advanced Video Codec
Format profile : High@L3.0
Format settings, CABAC : Yes
Format settings, ReFrames : 3 frames
Codec ID : V_MPEG4/ISO/AVC
Duration : 2h 52mn
Bit rate : 696 Kbps
Width : 720 pixels
Height : 288 pixels
Display aspect ratio : 2.500
Frame rate mode : Constant
Frame rate : 29.970 fps
Color space : YUV
Chroma subsampling : 4:2:0
Bit depth : 8 bits
Scan type : Progressive
Bits/(Pixel*Frame) : 0.112
Stream size : 623 MiB (71%)
Default : Yes
Forced : No

Audio #2
ID : 2
Format : AC-3
Format/Info : Audio Coding 3
Mode extension : CM (complete main)
Format settings, Endianness : Big
Codec ID : A_AC3
Duration : 2h 52mn
Bit rate mode : Constant
Bit rate : 256 Kbps
Channel(s) : 6 channels
Channel positions : Front: L C R, Side: L R, LFE
Sampling rate : 44.1 KHz
Bit depth : 16 bits
Compression mode : Lossy
Delay relative to video : 220ms
Stream size : 235 MiB (27%)
Default : Yes

:down:
Code:

http://rapidshare.com/files/2327017366/VTS_03_1.avi





Message (Page 1 of 1)

Permissions in this forum:
You cannot reply to topics in this forum


  • Total Posts:
  • Total Members:
  • Newest Member:
  • Most Online: Most users ever online was 15 on Sat Jun 18, 2016 1:26 pm

In total there is 0 user online :: 0 Registered, 0 Hidden and 0 Guests
Users browsing this forum: None